<?xml version="1.0" standalone="no"?>
<!DOCTYPE svg PUBLIC "-//W3C//DTD SVG 1.1//EN" "http://www.w3.org/Graphics/SVG/1.1/DTD/svg11.dtd" >
<svg xmlns="http://www.w3.org/2000/svg">
<metadata>Generated by IcoMoon</metadata>
<defs>
<font id="icomoon" horiz-adv-x="1024">
<font-face units-per-em="1024" ascent="960" descent="-64" />
<missing-glyph horiz-adv-x="1024" />
<glyph unicode="&#x20;" horiz-adv-x="512" d="" />
<glyph unicode="&#xe900;" glyph-name="01" d="M921.6 38.417v300.029c0 147.456-31.744 260.096-203.775 260.096-82.944 0-138.24-45.056-160.768-88.064h-2.048v74.752h-162.816v-546.813h169.984v271.357c0 71.68 13.312 140.288 101.376 140.288 87.040 0 88.064-80.896 88.064-144.384v-266.237h169.983v-1.024zM115.692 585.188h169.984v-546.813h-169.984v546.813zM200.705 857.604c-54.272 0-98.304-44.032-98.304-98.304s44.032-99.328 98.304-99.328c54.272 0 98.304 45.056 98.304 99.328s-44.032 98.304-98.304 98.304z" />
<glyph unicode="&#xe901;" glyph-name="02" d="M985.658 463.382l-218.176 218.179c-7.84 9.151-21.613 10.218-30.765 2.379-9.152-7.837-10.221-21.611-2.381-30.762 0.73-0.853 1.53-1.65 2.381-2.38l180.87-181.088h-863.77c-12.049 0-21.817-9.768-21.817-21.819s9.769-21.817 21.817-21.817h863.77l-180.87-180.871c-9.152-7.834-10.221-21.606-2.381-30.758s21.613-10.221 30.765-2.381c0.851 0.73 1.651 1.523 2.381 2.381l218.176 218.177c8.461 8.507 8.461 22.25 0 30.761z" />
<glyph unicode="&#xe902;" glyph-name="03" d="M419.308 801.846h-370.77c-15.933 0-28.846-12.913-28.846-28.846v-370.769c0-15.935 12.913-28.849 28.846-28.849h156.535v-249.234c0-15.923 12.913-28.845 28.846-28.845h92.698c12.41 0 23.437 7.948 27.359 19.728l92.692 278.071c0.985 2.946 1.485 6.026 1.485 9.129v370.769c0 15.933-12.91 28.846-28.845 28.846zM390.463 406.91l-84.638-253.909h-43.059v249.23c0 15.931-12.913 28.845-28.846 28.845h-156.536v313.077h313.079v-337.244zM975.462 801.846h-370.771c-15.935 0-28.849-12.913-28.849-28.846v-370.769c0-15.935 12.914-28.849 28.849-28.849h156.542v-249.234c0-15.923 12.914-28.845 28.845-28.845h92.692c12.418 0 23.438 7.948 27.364 19.728l92.692 278.071c0.977 2.946 1.481 6.026 1.481 9.129v370.769c0 15.933-12.914 28.846-28.845 28.846zM946.613 406.91l-84.638-253.909h-43.051v249.23c0 15.931-12.918 28.845-28.845 28.845h-156.542v313.077h313.076v-337.244z" />
<glyph unicode="&#xe903;" glyph-name="04" d="M376.439 628.857c-2.458-10.65-3.848-21.365-3.848-32.041 0-36.86 16.243-71.78 43.504-95.695-2.628-3.971-4.166-8.72-4.166-13.828v-16.853c-6.607 3.072-13.963 4.798-21.717 4.798-28.518 0-51.716-23.2-51.716-51.716 0-28.518 23.2-51.718 51.716-51.718 7.754 0 15.11 1.726 21.717 4.796v-33.352c-64.027-33.167-142.324-27.404-200.833 15.19-6.695 4.874-16.079 3.4-20.957-3.297-4.876-6.699-3.398-16.081 3.298-20.957 26.474-19.272 56.448-32.027 87.568-38.121 1.612-8.102 2.849-16.316 3.639-24.484 1.251-12.941 9.251-23.622 20.363-28.828l7.338-57.031c-14.719-9.431-24.504-25.917-24.504-44.659 0-17.689 8.718-33.37 22.073-43.006-7.24-9.066-11.586-20.541-11.586-33.018 0-17.689 8.718-33.37 22.073-43.006-7.24-9.066-11.583-20.541-11.583-33.018 0-29.231 23.781-53.012 53.010-53.012h275.724c29.229 0 53.012 23.781 53.012 53.012 0 12.478-4.344 23.951-11.586 33.018 13.355 9.636 22.073 25.315 22.073 43.006 0 12.478-4.344 23.951-11.583 33.018 13.353 9.636 22.071 25.315 22.071 43.006 0 18.741-9.783 35.23-24.504 44.659l7.34 57.045c11.129 5.226 19.126 15.954 20.347 28.951 4.59 48.773 22.79 94.247 52.63 131.51 48.349 60.373 75 136.282 75.063 213.772h1.43c34.173 0 61.975 27.8 61.975 61.972s-27.802 61.972-61.975 61.972h-24.437c-4.489 11.596-9.64 22.995-15.385 34.061 14.119 9.378 23.45 25.418 23.45 43.602 0 28.848-23.468 52.316-52.316 52.316h-45.812c-0.731 1.144-1.622 2.214-2.689 3.158-61.469 54.366-140.534 84.868-222.626 85.888-89.883 1.188-175.51-32.692-240.947-95.206-65.459-62.538-103.086-146.473-105.944-236.345-0.018-0.582-0.024-1.165-0.040-1.749-2.028-0.121-4.060-0.369-6.086-0.772-14.724-2.945-26.938-13.003-32.666-26.905-28.752-69.751-20.468-148.429 22.154-210.461 2.908-4.233 7.602-6.509 12.376-6.509 2.928 0 5.886 0.856 8.48 2.638 6.828 4.692 8.56 14.031 3.87 20.859-36.862 53.645-44.018 121.7-19.144 182.043 1.928 4.68 5.868 7.93 10.808 8.917 4.878 0.973 9.71-0.485 13.242-4.018l57.128-57.127c20.795-20.793 54.632-20.795 75.426 0 10.074 10.072 15.624 23.466 15.624 37.712s-5.548 27.64-15.622 37.712l-57.131 57.131c-3.549 3.547-5.020 8.411-4.041 13.345 0.965 4.85 4.121 8.708 8.655 10.586 38.314 15.868 80.962 18.85 121.104 8.671-2.568-13.961-4.344-28.326-5.276-43.063-0.655-10.41 3.281-20.949 10.437-28.572zM774.697 766.289c4.477-8.25 8.585-16.723 12.304-25.347h-74.056c-6.986 0-12.671 5.685-12.671 12.673s5.685 12.674 12.671 12.674h61.751zM238.698 719.54c-13.744-5.693-23.689-17.824-26.597-32.451-2.929-14.709 1.651-29.817 12.245-40.413l57.135-57.133c4.405-4.405 6.834-10.265 6.834-16.497s-2.429-12.093-6.836-16.499c-9.101-9.103-23.9-9.095-32.999 0l-57.129 57.129c-1.384 1.382-2.848 2.658-4.374 3.832 0.002 3.305 0.044 6.642 0.148 9.957 5.33 167.619 145.196 302.531 312.657 302.531 1.29 0 2.589-0.008 3.879-0.024 64.532-0.802 127.009-21.59 178.94-59.050h-138.605c-63.967 0-122.509-37.316-149.135-95.066-6.771-14.686-12.382-30.096-16.849-46.134-46.203 11.569-95.234 8.069-139.313-10.183zM451.475 512.44c-29.604 17.394-48.884 50.088-48.884 84.376 0 6.664 0.723 13.41 2.007 20.181h64.774c8.286 0 15.002 6.713 15.002 15s-6.715 15-15.002 15h-55.611c16.656 40.46 48.341 78.612 69.759 101.513 2.224 2.378 4.866 2.449 6.24 2.265 1.382-0.174 3.936-0.893 5.507-3.762 10.4-18.989 26.796-35.57 44.159-53.123 15.284-15.458 30.173-30.515 40.952-46.891h-40.215c-8.286 0-15-6.713-15-15s6.713-15 15-15h54.032c2.712-10.449 3.443-21.629 1.479-33.866-4.747-29.567-22.876-55.878-48.587-70.691h-14.641c5.497 12.442 9.409 28.905 11.516 49.046 0.864 8.239-5.118 15.618-13.357 16.478-8.227 0.877-15.618-5.118-16.478-13.357-3.377-32.293-11.205-45.492-14.612-48.998-4.903 4.749-13.824 24.547-15.43 64.201-0.328 8.069-6.971 14.391-14.979 14.391-0.203 0-0.41-0.004-0.616-0.012-8.278-0.336-14.715-7.318-14.381-15.596 1.1-27.154 5.599-49.938 12.769-66.154h-15.403zM663.689 239.313l-5.82-45.24h-316.35l-5.818 45.24h327.989zM648.045 42.025h-296.702c-12.689 0-23.011 10.322-23.011 23.011s10.322 23.011 23.011 23.011h296.702c12.689 0 23.011-10.322 23.011-23.011s-10.322-23.011-23.011-23.011zM340.855 118.049c-12.689 0-23.011 10.322-23.011 23.011 0 12.691 10.322 23.013 23.011 23.013h317.678c12.689 0 23.011-10.322 23.011-23.013 0-12.689-10.322-23.011-23.011-23.011h-317.678zM557.457 482.439v-58.905h-115.528v58.905h115.528zM390.212 401.801c-11.975 0-21.717 9.742-21.717 21.719 0 11.973 9.742 21.715 21.717 21.715 11.977 0 21.717-9.742 21.717-21.715 0-11.977-9.74-21.719-21.717-21.719zM323.979 291.897c29.913 0 59.896 6.009 87.951 18.141v-40.724h-91.501c-3.041 0-5.64 2.263-5.923 5.155-0.571 5.921-1.364 11.862-2.327 17.779 3.928-0.209 7.86-0.35 11.799-0.35zM637.557-34.001h-275.726c-12.689 0-23.011 10.322-23.011 23.013 0 12.689 10.322 23.011 23.011 23.011h275.724c12.689 0 23.011-10.322 23.011-23.011 0-12.691-10.322-23.013-23.009-23.013zM743.938 421.978c-33.511-41.847-53.942-92.834-59.079-147.456-0.276-2.92-2.879-5.208-5.927-5.208h-91.474v30.812c0 8.286-6.715 15.002-15 15.002s-15.002-6.715-15.002-15.002v-30.812h-115.528v124.219h115.528v-22.618c0-8.286 6.715-15 15.002-15 8.284 0 15 6.713 15 15v116.378c0 5.294-1.655 10.207-4.461 14.262 22.231 19.747 37.517 47.014 42.301 76.82 2.234 13.912 1.911 26.714-0.299 38.621h187.419c-0.059-71.717-23.734-139.149-68.481-195.019zM843.85 646.996h-228.946c-12.894 26.253-34.267 47.888-54.145 67.987-15.839 16.015-30.798 31.14-39.176 46.44-5.825 10.632-16.052 17.602-28.066 19.116-12.003 1.508-23.632-2.692-31.906-11.538-21.373-22.851-44.898-51.718-62.398-83.212 4.264 27.736 11.919 53.707 22.89 77.506 21.744 47.158 69.591 77.628 121.893 77.628h231.164c12.302 0 22.315-10.012 22.315-22.316s-10.013-22.316-22.315-22.316h-62.212c-23.529 0-42.672-19.142-42.672-42.674s19.143-42.674 42.672-42.674h130.902c17.629 0 31.973-14.344 31.973-31.971 0-17.629-14.342-31.975-31.973-31.975zM255.588 382.112c28.518 0 51.716 23.202 51.716 51.718s-23.2 51.716-51.716 51.716c-28.514 0-51.717-23.202-51.717-51.716 0-28.516 23.201-51.718 51.717-51.718zM255.588 455.547c11.975 0 21.717-9.742 21.717-21.715 0-11.977-9.742-21.719-21.717-21.719s-21.717 9.742-21.717 21.719c0 11.973 9.742 21.715 21.717 21.715zM165.447 869.795c2.926-2.908 6.75-4.362 10.574-4.362 3.854 0 7.708 1.476 10.638 4.426 5.84 5.876 5.812 15.372-0.064 21.212l-15.768 15.674c-5.874 5.838-15.372 5.81-21.212-0.064-5.84-5.876-5.812-15.372 0.064-21.212l15.768-15.674zM207.466 909.379c1.708-6.81 7.821-11.356 14.539-11.356 1.208 0 2.435 0.146 3.66 0.456 8.036 2.016 12.917 10.162 10.899 18.198l-5.468 21.804c-2.015 8.038-10.172 12.928-18.196 10.9-8.036-2.016-12.917-10.162-10.901-18.198l5.468-21.804zM118.277 825.040l21.842-5.344c1.198-0.292 2.396-0.434 3.576-0.434 6.75 0 12.882 4.59 14.558 11.44 1.968 8.046-2.958 16.166-11.006 18.134l-21.842 5.344c-8.046 1.96-16.166-2.958-18.134-11.006s2.96-16.166 11.006-18.134zM853.367 865.433c3.826 0 7.649 1.454 10.576 4.362l15.768 15.674c5.876 5.842 5.904 15.338 0.063 21.212s-15.337 5.902-21.211 0.064l-15.77-15.674c-5.876-5.842-5.902-15.338-0.063-21.212 2.931-2.95 6.785-4.426 10.637-4.426zM803.725 898.481c1.225-0.308 2.451-0.456 3.66-0.456 6.713 0 12.831 4.544 14.539 11.356l5.468 21.804c2.015 8.036-2.867 16.182-10.902 18.198-8.030 2.024-16.181-2.864-18.196-10.9l-5.468-21.804c-2.017-8.036 2.863-16.182 10.899-18.198zM922.118 843.174c-1.966 8.046-10.086 12.966-18.135 11.006l-21.842-5.344c-8.047-1.968-12.974-10.088-11.006-18.134 1.675-6.85 7.809-11.44 14.557-11.44 1.182 0 2.38 0.14 3.578 0.434l21.842 5.344c8.045 1.968 12.974 10.088 11.006 18.134z" />
<glyph unicode="&#xe904;" glyph-name="05" d="M384 106.673c-8.437 0-16.685 2.505-23.699 7.195s-12.483 11.353-15.711 19.149c-3.228 7.789-4.073 16.37-2.428 24.644s5.707 15.879 11.672 21.845l268.502 268.5-268.502 268.502c-7.771 8.047-12.072 18.825-11.975 30.011s4.585 21.888 12.496 29.799c7.911 7.911 18.612 12.398 29.799 12.496s21.965-4.203 30.011-11.975l298.669-298.667c7.994-8.002 12.493-18.852 12.493-30.166s-4.499-22.164-12.493-30.165l-298.669-298.669c-7.999-8.001-18.85-12.5-30.165-12.5z" />
<glyph unicode="&#xe905;" glyph-name="06" d="M640.001 789.334c8.437-0.002 16.685-2.505 23.699-7.193s12.483-11.351 15.711-19.147c3.228-7.795 4.075-16.372 2.428-24.648-1.645-8.275-5.707-15.877-11.672-21.844l-268.502-268.502 268.502-268.5c7.771-8.049 12.072-18.828 11.975-30.010-0.098-11.189-4.585-21.893-12.496-29.805-7.911-7.905-18.612-12.397-29.799-12.493s-21.965 4.205-30.011 11.974l-298.667 298.669c-7.998 8.001-12.492 18.851-12.492 30.165s4.494 22.164 12.492 30.166l298.667 298.667c7.999 8.002 18.85 12.499 30.165 12.501z" />
<glyph unicode="&#xe906;" glyph-name="07" d="M170.669 575.989c-16.663 16.662-16.663 43.677 0 60.339 16.662 16.663 43.677 16.663 60.339 0l250.825-250.825c16.662-16.662 43.679-16.662 60.339 0l250.825 250.825c16.662 16.663 43.678 16.663 60.339 0s16.662-43.678 0-60.339l-311.164-311.164c-16.66-16.662-43.678-16.662-60.339 0l-311.164 311.164z" />
<glyph unicode="&#xe907;" glyph-name="08" d="M879.999-43.999v119.998c0 11.047-8.952 20.001-19.999 20.001s-20.001-8.954-20.001-20.001v-100h-100c-11.047 0-20.001-8.952-20.001-19.999s8.954-20.001 20.001-20.001h120.001c11.047 0 19.999 8.954 19.999 20.001zM459.999 28c0-11.047-8.952-20.001-19.999-20.001s-20.001 8.954-20.001 20.001c0 11.047 8.954 20.001 20.001 20.001s19.999-8.954 19.999-20.001zM346.249 18.055c1.438-0.311 2.867-0.469 4.282-0.469 9.196 0 17.484 6.392 19.515 15.751 2.351 10.797-4.493 21.453-15.282 23.796-182.39 39.735-314.765 204.118-314.765 390.867 0 220.563 179.437 400 400.001 400 178.1 0 335.983-120.546 384.616-290h-0.618c-4.936 0-9.71-1.829-13.373-5.132l-55.368-49.82c-26.085 150.163-157.305 264.952-315.257 264.952-176.454 0-320.001-143.555-320.001-320s143.547-320 320.001-320c157.952 0 289.186 114.805 315.24 264.968l55.376-49.834c3.672-3.305 8.438-5.134 13.382-5.134h0.618c-40.243-140.554-155.345-249.475-299.383-280.859-10.797-2.351-17.633-13.007-15.288-23.804 2.038-9.359 10.32-15.743 19.522-15.743 1.415 0 2.845 0.15 4.282 0.461 162.187 35.336 291.031 160.031 332.335 319.945h137.914c7.375 0 14.148 4.063 17.633 10.564 3.475 6.5 3.101 14.389-0.993 20.531l-52.601 78.905 52.601 78.907c4.094 6.132 4.477 14.031 0.993 20.531-3.486 6.498-10.258 10.562-17.633 10.562h-137.937c-49.891 192.649-224.641 330-426.062 330-242.618 0-440.001-197.382-440.001-440 0-209.897 148.148-386.796 346.249-429.945zM440.001 168.002c-154.391 0-280.001 125.608-280.001 279.998s125.61 280.001 280.001 280.001c146.733 0 267.569-112.376 279.093-257.516l-2.767-2.484h-77.382c-10.070 100.899-95.453 179.96-198.945 179.96-110.258 0-199.963-89.702-199.963-199.961s89.704-199.961 199.963-199.961c103.5 0 188.875 79.055 198.945 179.962h77.375l2.757-2.478c-11.5-145.148-132.319-257.522-279.077-257.522zM517.468 468.001c-8.907 34.468-40.258 60-77.468 60-44.11 0-80.001-35.891-80.001-80.001s35.891-79.999 80.001-79.999c37.21 0 68.561 25.555 77.468 60.023h81.172c-9.875-78.797-77.226-139.985-158.64-139.985-88.203 0-159.961 71.758-159.961 159.961s71.758 159.961 159.961 159.961c81.414 0 148.765-61.172 158.64-139.96h-81.172zM480 448c0-22.055-17.947-39.999-39.999-39.999-22.055 0-40.002 17.945-40.002 39.999s17.947 39.999 40.002 39.999c22.053 0 39.999-17.945 39.999-39.999zM927.359 436.906l39.272-58.905h-134.961l-73.748 66.374c-0.774 1.673-1.765 3.219-2.953 4.602l76.702 69.024h134.961l-39.272-58.907c-4.477-6.719-4.477-15.469 0-22.188zM20 800c11.047 0 20 8.953 20 20v100h100c11.047 0 20 8.953 20 20s-8.953 20-20 20h-120c-11.047 0-20-8.953-20-20v-120c0-11.047 8.953-20 20-20zM860 800c11.047 0 19.999 8.953 19.999 20v120c0 11.047-8.952 20-19.999 20h-120.001c-11.047 0-20.001-8.953-20.001-20s8.954-20 20.001-20h100v-100c0-11.047 8.954-20 20.001-20zM20-64h120c11.047 0 20 8.954 20 20.001s-8.953 19.999-20 19.999h-100v100c0 11.047-8.953 20.001-20 20.001s-20-8.954-20-20.001v-119.998c0-11.047 8.953-20.001 20-20.001z" />
<glyph unicode="&#xe908;" glyph-name="09" d="M504.703 466.735c67.765 0 126.437 24.305 174.39 72.258 47.94 47.946 72.25 106.609 72.25 174.383 0 67.75-24.303 126.422-72.258 174.382-47.953 47.937-106.625 72.242-174.382 72.242-67.774 0-126.437-24.305-174.383-72.25s-72.258-106.617-72.258-174.374c0-67.774 24.312-126.446 72.258-174.391 47.961-47.938 106.633-72.25 174.383-72.25zM372.758 845.32c36.789 36.79 79.945 54.672 131.945 54.672 51.992 0 95.156-17.883 131.953-54.672 36.789-36.796 54.681-79.961 54.681-131.944 0-52-17.892-95.156-54.681-131.953-36.797-36.796-79.961-54.68-131.953-54.68-51.984 0-95.141 17.891-131.945 54.68-36.797 36.789-54.688 79.953-54.688 131.953 0 51.984 17.891 95.148 54.688 131.944zM936.257 172.592c-1.386 19.954-4.178 41.718-8.294 64.703-4.157 23.156-9.51 45.048-15.92 65.057-6.622 20.679-15.613 41.101-26.747 60.671-11.537 20.313-25.102 38-40.318 52.554-15.913 15.227-35.403 27.469-57.931 36.398-22.453 8.883-47.336 13.383-73.953 13.383-10.452 0-20.562-4.289-40.086-17-12.016-7.836-26.070-16.899-41.758-26.922-13.414-8.546-31.586-16.555-54.031-23.805-21.899-7.085-44.133-10.68-66.086-10.68-21.937 0-44.172 3.594-66.086 10.68-22.422 7.242-40.602 15.25-53.992 23.797-15.539 9.929-29.601 18.992-41.797 26.937-19.507 12.711-29.617 17-40.070 17-26.625 0-51.5-4.508-73.945-13.398-22.516-8.914-42.008-21.157-57.938-36.398-15.219-14.563-28.781-32.242-40.312-52.547-11.117-19.57-20.117-39.984-26.742-60.68-6.399-20.008-11.75-41.893-15.906-65.049-4.125-22.951-6.914-44.721-8.297-64.724-1.359-19.558-2.047-39.909-2.047-60.471 0-53.453 16.992-96.727 50.5-128.642 33.094-31.491 76.875-47.459 130.133-47.459h493.059c53.241 0 97.027 15.968 130.13 47.459 33.512 31.894 50.504 75.182 50.504 128.649-0.007 20.637-0.703 40.987-2.068 60.484zM846.445 26.938c-21.866-20.815-50.9-30.932-88.76-30.932h-493.053c-37.867 0-66.898 10.117-88.758 30.925-21.445 20.412-31.867 48.278-31.867 85.169 0 19.19 0.633 38.134 1.898 56.32 1.234 17.845 3.757 37.444 7.5 58.272 3.695 20.576 8.398 39.875 13.992 57.354 5.367 16.758 12.688 33.352 21.766 49.336 8.664 15.234 18.633 28.305 29.633 38.836 10.289 9.852 23.258 17.914 38.539 23.961 14.133 5.594 30.016 8.656 47.258 9.117 2.101-1.117 5.844-3.25 11.906-7.203 12.336-8.039 26.555-17.211 42.273-27.25 17.719-11.297 40.547-21.5 67.82-30.305 27.883-9.015 56.321-13.594 84.547-13.594s56.672 4.579 84.539 13.586c27.297 8.82 50.117 19.016 67.859 30.328 16.086 10.281 29.908 19.187 42.244 27.234 6.062 3.945 9.803 6.086 11.906 7.203 17.251-0.461 33.13-3.523 47.275-9.117 15.271-6.047 28.242-14.118 38.53-23.961 10.998-10.523 20.965-23.594 29.635-38.844 9.086-15.976 16.411-32.578 21.77-49.321 5.605-17.5 10.315-36.799 14.001-57.354 3.734-20.862 6.267-40.475 7.496-58.286v-0.014c1.277-18.118 1.918-37.055 1.925-56.3-0.007-36.898-10.431-64.758-31.874-85.163z" />
<glyph unicode="&#xe909;" glyph-name="10" d="M591.301-64v467.060h156.71l23.511 182.076h-180.221v116.229c0 52.698 14.574 88.612 90.229 88.612l96.335 0.040v162.855c-16.66 2.165-73.847 7.129-140.407 7.129-138.988 0-234.141-84.837-234.141-240.602v-134.262h-157.185v-182.076h157.185v-467.060h187.983z" />
<glyph unicode="&#xe90a;" glyph-name="11" d="M666.042 401.661c50.219-127.055 87.508-257.859 111.741-391.49 34.571 21.077 66.883 46.404 96.252 75.759 76.279 76.293 125.508 172.419 142.899 276.746-74.94 31-157.013 48.156-243.017 48.156-36.766 0-72.797-3.172-107.875-9.172zM874.47 809.602c-0.154 0.141-0.29 0.297-0.435 0.438-96.71 96.703-225.28 149.961-362.038 149.961-53.477 0-105.703-8.18-155.258-23.883 79.43-99.516 149.305-205.718 209.188-317.961 112.812 47.898 216.726 112.797 308.543 191.445zM914.679 764.25c-96.312-82.726-203.937-149.765-321.055-199.867 17.265-34.758 33.571-70.071 48.961-105.906 42.977 8.18 86.828 12.352 131.32 12.352 86.177 0 170-15.5 249.539-46.008 0.341 7.688 0.538 15.398 0.538 23.141 0 116.187-38.451 226.446-109.303 316.289zM196.854 44.407c89.633-70.281 199.462-108.399 315.149-108.399 73.531 0 144.688 15.42 209.805 44.689-24.406 141.42-63.485 277.873-115.625 407.74-181.195-49.453-330.476-176.969-409.329-344.030zM502.321 416.008c26.336 11.141 53.18 20.578 80.445 28.343-14.391 32.953-29.656 65.438-45.718 97.462-138.32-51.36-283.766-77.383-433.172-77.383-34.711 0-69.196 1.429-103.43 4.227-0.273-6.868-0.445-13.758-0.445-20.672 0-136.758 53.258-265.329 149.961-362.028 0.032-0.034 0.071-0.068 0.102-0.094 33.446 66.7 77.188 127.325 130.485 180.63 64.070 64.062 138.679 114.367 221.774 149.515zM508.995 595.682c-60.757 112.524-131.843 218.688-211.96 317.235-53.993-25.008-103.735-59.578-147.063-102.906-77.469-77.469-127.024-175.398-143.68-281.602 32.188-2.633 64.734-4 97.594-4 142.203 0 278.648 25.172 405.109 71.273z" />
<glyph unicode="&#xe90b;" glyph-name="12" d="M511.998 558c-21.756 0-43.024-6.451-61.112-18.538-18.090-12.087-32.188-29.266-40.516-49.367-8.325-20.099-10.504-42.217-6.259-63.556 4.243-21.336 14.721-40.937 30.104-56.32 15.385-15.385 34.984-25.86 56.322-30.106 21.338-4.243 43.457-2.066 63.556 6.261 20.099 8.325 37.28 22.424 49.367 40.514s18.538 39.356 18.538 61.112c-0.033 29.164-11.633 57.125-32.254 77.746-20.621 20.623-48.583 32.221-77.746 32.254zM511.998 366c-16.218 0-32.072 4.809-45.558 13.82-13.484 9.009-23.994 21.817-30.2 36.801-6.207 14.983-7.832 31.47-4.667 47.376s10.973 30.517 22.442 41.986c11.467 11.467 26.079 19.278 41.986 22.442 15.905 3.164 32.393 1.54 47.376-4.667 14.983-6.205 27.791-16.716 36.801-30.2 9.011-13.486 13.82-29.34 13.82-45.558-0.025-21.742-8.671-42.584-24.044-57.956-15.372-15.374-36.217-24.021-57.956-24.044zM559.997 462c-3.713 0-7.274-1.475-9.9-4.1s-4.1-6.187-4.1-9.9c-0.020-5.954-1.595-11.799-4.569-16.955-2.974-5.159-7.242-9.452-12.382-12.452-1.589-0.928-2.98-2.157-4.092-3.621-1.114-1.462-1.927-3.131-2.396-4.909s-0.582-3.631-0.334-5.454c0.248-1.821 0.852-3.576 1.778-5.165s2.157-2.98 3.619-4.092c1.464-1.114 3.131-1.927 4.911-2.396 1.778-0.469 3.631-0.582 5.452-0.334 1.823 0.248 3.578 0.852 5.167 1.778 9.363 5.474 17.136 13.3 22.546 22.7 5.411 9.402 8.272 20.054 8.301 30.9 0 3.713-1.475 7.274-4.1 9.9s-6.187 4.1-9.9 4.1zM873.837 480.721c5.104-1.341 10.357-2.030 15.632-2.048 12.257 0.006 24.238 3.645 34.427 10.459 10.191 6.812 18.133 16.493 22.823 27.816 4.692 11.323 5.923 23.783 3.535 35.807-2.386 12.022-8.282 23.067-16.943 31.74-1.018 1.010-2.097 1.921-3.201 2.857 10.4 37.712 7.999 70.56-7.625 97.649-33.599 58.239-121.831 77.319-242.895 53.215-39.784 116.896-100.456 183.784-167.592 183.784-67.138 0-127.801-66.88-167.625-183.792-121.088 24.12-209.296 5.032-242.888-53.199-15.144-26.161-17.8-59.034-8.144-95.521-11.398-8.923-19.314-21.553-22.376-35.701s-1.079-28.92 5.607-41.757c6.687-12.839 17.654-22.934 31.002-28.533 13.348-5.601 28.234-6.353 42.079-2.13 8.304-11.049 17.4-22.225 27.2-33.415-81.352-92.834-108.944-178.776-75.376-236.954 24.12-41.816 76.328-63.502 148.663-63.502 31.666 0.387 63.22 3.848 94.216 10.334 39.817-116.926 100.497-183.831 167.641-183.831 30.335 0 60.256 14.223 87.144 40.991 13.228-5.796 28.066-6.789 41.951-2.808 13.883 3.981 25.94 12.687 34.087 24.615 8.147 11.926 11.872 26.323 10.531 40.704s-7.664 27.843-17.873 38.058c-1.010 1.016-2.089 1.935-3.154 2.863 5.241 12.392 10.256 25.6 14.993 39.408 30.982-6.49 62.523-9.951 94.175-10.334 72.329 0 124.545 21.694 148.664 63.502 33.599 58.178 5.976 144.12-75.36 236.945 9.439 10.775 18.352 21.735 26.679 32.776zM913.502 516.608c-6.382-6.363-15.026-9.937-24.037-9.937s-17.654 3.574-24.035 9.937c-4.749 4.753-7.983 10.809-9.294 17.4-1.309 6.593-0.633 13.425 1.939 19.632s6.928 11.514 12.517 15.247c5.587 3.734 12.157 5.726 18.876 5.726 6.722 0 13.289-1.993 18.878-5.726 5.587-3.734 9.943-9.040 12.517-15.247 2.572-6.207 3.246-13.040 1.937-19.632-1.309-6.59-4.551-12.646-9.3-17.4zM898.261 671.009c10.953-19.018 13.064-42.656 6.472-70.4-13.146 3.342-27.027 2.279-39.51-3.029-12.485-5.306-22.882-14.563-29.598-26.352-6.713-11.786-9.376-25.45-7.574-38.898 1.802-13.445 7.965-25.928 17.545-35.531 1.010-1.016 2.089-1.927 3.152-2.863-6.494-8.46-13.353-16.853-20.574-25.184-34.316 35.633-71.692 68.186-111.696 97.288-5.226 49.177-14.701 97.81-28.322 145.351 105.505 20.4 183.529 5.681 210.104-40.382zM660.709 190.544c-38.949 9.505-77.132 21.914-114.223 37.128 23.88 11.545 47.663 24.089 71 37.56 23.519 13.599 46.279 27.935 68 42.777-5.313-39.719-13.593-78.985-24.777-117.465zM363.284 190.544c-11.19 38.48-19.481 77.744-24.799 117.465 21.776-14.842 44.528-29.192 68.041-42.777 23.312-13.472 47.071-26.032 70.992-37.56-37.095-15.215-75.28-27.623-114.233-37.128zM363.284 705.456c38.951-9.503 77.132-21.914 114.225-37.128-23.888-11.545-47.665-24.089-71-37.599-23.519-13.601-46.281-27.937-68.041-42.777 5.321 39.733 13.617 79.012 24.816 117.504zM303.997 367.729c-31.756 24.453-61.608 51.288-89.295 80.271 27.689 28.981 57.541 55.814 89.295 80.271-1.976-26.399-3.023-53.303-3.023-80.271s1.032-53.84 3.023-80.271zM420.534 289.489c-30.304 17.496-59.304 36.278-86.456 55.814-3.344 33.53-5.104 68.002-5.104 102.697s1.759 69.161 5.104 102.697c27.128 19.519 56.136 38.312 86.456 55.814 29.999 17.336 60.752 33.098 91.472 47.024 30.743-13.935 61.487-29.696 91.488-47.024 30.302-17.496 59.304-36.278 86.454-55.814 3.344-33.53 5.106-68.002 5.106-102.697s-1.761-69.161-5.106-102.697c-27.128-19.519-56.136-38.312-86.454-55.814-30.001-17.336-60.754-33.098-91.474-47.024-30.759 13.935-61.503 29.696-91.503 47.024h0.016zM660.726 705.489c11.192-38.48 19.481-77.746 24.799-117.465-21.776 14.84-44.528 29.192-68 42.777-23.368 13.439-47.129 25.999-71.047 37.528 37.095 15.215 75.28 27.623 114.231 37.128l0.016 0.033zM719.997 528.271c31.758-24.453 61.61-51.288 89.297-80.271-27.689-28.981-57.541-55.814-89.297-80.271 1.976 26.399 3.025 53.303 3.025 80.271s-1.032 53.84-3.025 80.271zM511.998 894c53.103 0 104.903-60.232 140.12-161.799-48.005-11.934-94.89-27.994-140.128-48.001-45.234 20.009-92.113 36.069-140.112 48.001 35.224 101.575 87.015 161.799 140.12 161.799zM107.429 516.608c-5.58 5.562-9.057 12.888-9.84 20.728-0.783 7.842 1.177 15.71 5.547 22.266 4.369 6.558 10.878 11.395 18.415 13.691 7.537 2.294 15.638 1.905 22.919-1.104 7.282-3.011 13.295-8.45 17.014-15.397 3.719-6.945 4.914-14.967 3.382-22.696-1.533-7.727-5.698-14.686-11.787-19.685-6.088-5.001-13.723-7.737-21.602-7.739-4.468-0.018-8.895 0.852-13.024 2.556-4.13 1.706-7.871 4.215-11.024 7.381zM175.309 584.495c-7.244 7.234-16.167 12.558-25.97 15.501-9.804 2.945-20.184 3.416-30.214 1.372-6.464 27.408-4.304 50.799 6.6 69.599 26.584 46.088 104.607 60.801 210.112 40.393-13.619-47.546-23.097-96.18-28.328-145.361-40.006-29.069-77.384-61.594-111.704-97.2-7.792 8.993-15.072 17.93-21.84 26.817 0.44 0.416 0.912 0.801 1.344 1.225 11.613 11.635 18.136 27.4 18.136 43.839s-6.522 32.205-18.136 43.839v-0.025zM125.71 224.999c-26.512 46.017-0.256 120.969 70.136 202.201 34.309-35.617 71.677-68.155 111.672-97.241 5.224-49.177 14.701-97.81 28.32-145.351-105.511-20.386-183.536-5.681-210.112 40.391h-0.016zM648.038 47.679c-5.564-5.581-12.892-9.060-20.734-9.845-7.842-0.782-15.714 1.178-22.272 5.548s-11.397 10.879-13.695 18.42c-2.296 7.539-1.905 15.641 1.104 22.925 3.011 7.283 8.452 13.298 15.401 17.019 6.949 3.719 14.971 4.915 22.702 3.381 7.729-1.534 14.69-5.702 19.692-11.792s7.735-13.726 7.737-21.608c0.002-9.015-3.57-17.662-9.935-24.048zM624.038 133.704c-11.799 0.002-23.353-3.367-33.305-9.705-9.951-6.341-17.885-15.389-22.872-26.081-4.985-10.695-6.816-22.589-5.274-34.288s6.392-22.712 13.978-31.75c-20.799-19.814-42.463-29.878-64.528-29.878-53.103 0-104.903 60.232-140.12 161.798 48.005 11.934 94.89 27.994 140.128 48.001 45.244-20.011 92.133-36.069 140.145-48.001-3.92-11.239-7.999-22-12.272-32.199-5.194 1.386-10.545 2.093-15.921 2.103h0.041zM898.31 224.999c-26.585-46.080-104.608-60.799-210.113-40.391 13.619 47.544 23.097 96.178 28.328 145.359 39.979 29.084 77.33 61.62 111.624 97.233 70.392-81.232 96.647-156.185 70.119-202.201h0.041z" />
<glyph unicode="&#xe90c;" glyph-name="13" d="M1001.772 493.932c20.159 19.644 27.273 48.473 18.575 75.273-8.711 26.799-31.409 45.93-59.296 49.99l-247.945 36.027c-10.561 1.537-19.681 8.161-24.399 17.736l-110.848 224.648c-12.446 25.241-37.708 40.927-65.861 40.927-28.132 0-53.393-15.686-65.84-40.927l-110.868-224.669c-4.717-9.576-13.862-16.199-24.421-17.736l-247.942-36.027c-27.866-4.039-50.585-23.19-59.299-49.99-8.694-26.799-1.579-55.628 18.577-75.272l179.395-174.863c7.648-7.464 11.154-18.208 9.35-28.707l-42.321-246.917c-3.753-21.736 1.948-42.871 16.014-59.542 21.858-25.982 60.017-33.894 90.528-17.859l221.737 116.586c9.268 4.861 20.935 4.82 30.183 0l221.76-116.586c10.779-5.68 22.282-8.554 34.161-8.554 21.668 0 42.216 9.639 56.34 26.412 14.090 16.671 19.77 37.847 16.015 59.542l-42.339 246.917c-1.802 10.519 1.7 21.243 9.353 28.707l179.391 174.883z" />
<glyph unicode="&#xe90d;" glyph-name="14" d="M1024 765.504c-38.084-16.704-78.66-27.776-120.96-33.152 43.52 25.984 76.74 66.816 92.356 116.032-40.576-24.192-85.385-41.28-133.129-50.816-38.524 41.024-93.436 66.432-153.34 66.432-116.224 0-209.792-94.336-209.792-209.984 0-16.64 1.408-32.64 4.864-47.872-174.528 8.512-328.96 92.16-432.704 219.584-18.112-31.424-28.736-67.392-28.736-106.112 0-72.704 37.44-137.152 93.248-174.464-33.728 0.64-66.816 10.432-94.848 25.856 0-0.64 0-1.472 0-2.304 0-102.016 72.768-186.752 168.192-206.272-17.088-4.672-35.712-6.912-55.040-6.912-13.44 0-27.008 0.768-39.744 3.584 27.2-83.136 104.384-144.256 196.16-146.24-71.424-55.872-162.112-89.536-260.288-89.536-17.216 0-33.728 0.768-50.24 2.88 92.992-59.964 203.2-94.208 322.048-94.208 386.304 0 597.504 320 597.504 597.376 0 9.28-0.324 18.24-0.768 27.136 41.66 29.568 76.672 66.496 105.216 108.992z" />
<glyph unicode="&#xe90e;" glyph-name="15" d="M970.67 128v573.312c0 66.517-52.825 120.021-117.337 120.021h-682.667c-64.512 0-117.333-53.504-117.333-120.021 0 0.042 0-570.664 0-570.664 0-66.478 52.821-119.979 117.333-119.979h682.667c31.102 0 60.969 12.37 82.985 34.345 21.975 22.016 34.352 51.883 34.352 82.985zM906.67 128c0-14.165-5.632-27.689-15.619-37.717-10.028-9.981-23.552-15.613-37.717-15.613h-682.667c-29.696 0-53.333 25.341-53.333 55.979v570.664c0 30.677 23.637 56.021 53.333 56.021h682.667c29.696 0 53.337-25.344 53.337-56.021v-573.312zM202.667 853.333v-128c0-17.664 14.336-32 32-32s32 14.336 32 32v128c0 17.664-14.336 32-32 32s-32-14.336-32-32zM757.337 853.333v-128c0-17.664 14.329-32 31.997-32s31.997 14.336 31.997 32v128c0 17.664-14.329 32-31.997 32s-31.997-14.336-31.997-32zM480 853.333v-128c0-17.664 14.336-32 32-32s32 14.336 32 32v128c0 17.664-14.336 32-32 32s-32-14.336-32-32zM85.333 522.667h853.333c17.667 0 32.003 14.336 32.003 32s-14.336 32-32.003 32h-853.333c-17.664 0-32-14.336-32-32s14.336-32 32-32zM284.458 426.667h28.416c15.701 0 28.459-12.757 28.459-28.458v-28.416c0-15.701-12.758-28.459-28.459-28.459h-28.416c-15.701 0-28.458 12.758-28.458 28.459v28.416c0 15.701 12.757 28.458 28.458 28.458zM284.458 256h28.416c15.701 0 28.459-12.757 28.459-28.46v-28.413c0-15.701-12.758-28.46-28.459-28.46h-28.416c-15.701 0-28.458 12.759-28.458 28.46v28.413c0 15.703 12.757 28.46 28.458 28.46zM497.792 426.667h28.416c15.701 0 28.459-12.757 28.459-28.458v-28.416c0-15.701-12.758-28.459-28.459-28.459h-28.416c-15.701 0-28.458 12.758-28.458 28.459v28.416c0 15.701 12.757 28.458 28.458 28.458zM497.792 256h28.416c15.701 0 28.459-12.757 28.459-28.46v-28.413c0-15.701-12.758-28.46-28.459-28.46h-28.416c-15.701 0-28.458 12.759-28.458 28.46v28.413c0 15.703 12.757 28.46 28.458 28.46zM711.127 426.667h28.413c15.701 0 28.46-12.757 28.46-28.458v-28.416c0-15.701-12.759-28.459-28.46-28.459h-28.413c-15.701 0-28.46 12.758-28.46 28.459v28.416c0 15.701 12.759 28.458 28.46 28.458zM711.127 256h28.413c15.701 0 28.46-12.757 28.46-28.46v-28.413c0-15.701-12.759-28.46-28.46-28.46h-28.413c-15.701 0-28.46 12.759-28.46 28.46v28.413c0 15.703 12.759 28.46 28.46 28.46z" />
<glyph unicode="&#xe90f;" glyph-name="16" horiz-adv-x="975" d="M968.519 843.203l-621.708-477.873-340.256 268.511-6.554-124.507 337.803-409.064 637.435 618.594-6.719 124.34z" />
<glyph unicode="&#xe910;" glyph-name="17" d="M512-64c282.301 0 512 229.678 512 512 0 48.729-6.804 96.75-20.27 142.739-6.636 22.615-30.249 35.604-52.925 28.969-22.636-6.615-35.584-30.312-28.969-52.927 11.156-38.209 16.829-78.188 16.829-118.781 0-235.259-191.406-426.665-426.665-426.665s-426.666 191.406-426.666 426.665c0 235.26 191.406 426.666 426.666 426.666 85.499 0 167.762-25 237.885-72.281 19.523-13.177 46.065-8 59.218 11.521 13.169 19.542 8.033 46.062-11.51 59.229-84.27 56.823-183.020 86.864-285.594 86.864-282.302 0-512-229.677-512-512 0-282.322 229.698-512 512-512zM951.194 862.158l-439.168-439.143-140.5 140.477c-16.667 16.656-43.667 16.656-60.334 0-16.656-16.667-16.656-43.667 0-60.334l170.667-170.665c8.344-8.346 19.239-12.503 30.167-12.503 10.926 0 21.821 4.157 30.167 12.503l469.335 469.331c16.655 16.667 16.655 43.667 0 60.334-16.671 16.656-43.668 16.656-60.334 0z" />
<glyph unicode="&#xe911;" glyph-name="18" d="M1017.748-27.581l-311.572 311.572c64.717 71.854 104.494 166.591 104.494 270.677-0.005 223.498-181.837 405.332-405.336 405.332s-405.334-181.834-405.334-405.334c0-223.499 181.834-405.336 405.334-405.336 104.086 0 198.821 39.777 270.68 104.494l311.567-311.572c4.168-4.168 9.631-6.252 15.089-6.252s10.916 2.084 15.084 6.252c8.33 8.33 8.33 21.832-0.005 30.167zM405.334 192c-199.958 0-362.666 162.688-362.666 362.666s162.708 362.668 362.666 362.668c199.958 0 362.666-162.688 362.666-362.668 0-199.978-162.708-362.666-362.666-362.666z" />
<glyph unicode="&#xe912;" glyph-name="19" d="M582.868 960c-11.049 0-20.002-8.953-20.002-20s8.953-20 20.002-20c221.177 0 401.114-179.945 401.114-401.115 0-11.049 8.963-20.002 20.002-20.002 11.046 0 19.999 8.953 19.999 20.002 0 243.225-197.881 441.115-441.115 441.115zM883.671 498.872c11.046 0 19.999 8.96 19.999 19.999 0 176.898-143.913 320.812-320.802 320.812-11.049 0-20.002-8.961-20.002-20 0-11.047 8.953-20 20.002-20 154.836 0 280.805-125.968 280.805-280.812 0-11.039 8.953-19.999 19.999-19.999zM743.335 518.881c0-11.039 8.953-19.999 19.999-19.999 11.049 0 20.002 8.96 20.002 19.999 0 110.539-89.931 200.469-200.468 200.469-11.049 0-20.002-8.953-20.002-19.992 0-11.047 8.953-20 20.002-20 88.484 0 160.468-71.986 160.468-160.477zM562.865 579.034c0-11.039 8.953-19.992 20.002-19.992 22.139 0 40.154-18.016 40.154-40.165 0-11.039 8.953-20.002 20.002-20.002 11.039 0 19.999 8.963 19.999 20.002 0 44.203-35.959 80.155-80.155 80.155-11.049 0-20.002-8.953-20.002-19.999zM374.866 310.641c0-11.046-8.953-19.999-19.999-19.999-11.049 0-20 8.953-20 19.999 0 11.039 8.951 20.002 20 20.002 11.046 0 19.999-8.963 19.999-20.002zM548.065-39.718c91.068-44.633 200.632-26.064 272.647 45.954l41.353 41.349c22.453 22.432 22.46 58.767 0.007 81.213l-159.782 159.764c-22.412 22.446-58.757 22.477-81.196 0.007l-67.888-67.898c-13.298-13.295-33.823-16.009-48.79-6.451-24.405 15.599-48.148 32.802-70.564 51.132-8.554 6.991-21.146 5.728-28.14-2.819-6.991-8.557-5.728-21.159 2.819-28.143 23.617-19.313 48.626-37.437 74.353-53.873 30.665-19.586 72.134-14.595 98.601 11.875l67.908 67.905c6.789 6.796 17.787 6.813 24.607-0.007l159.788-159.775c6.806-6.813 6.823-17.828 0-24.634l-41.359-41.366c-59.989-59.993-151.115-75.39-226.765-38.318-277.131 135.898-427.913 351.382-505.6 508.225-37.164 75.008-21.734 165.788 38.398 225.906l40.453 40.445c6.781 6.797 17.789 6.82 24.602-0.008l159.804-159.796c6.766-6.758 6.836-17.773-0.016-24.61l-67.891-67.898c-26.469-26.47-31.461-67.939-11.875-98.611 11.539-18.053 23.977-35.867 36.977-52.937 6.687-8.786 19.234-10.482 28.023-3.796s10.492 19.234 3.797 28.030c-12.328 16.196-24.14 33.103-35.094 50.234-9.555 14.978-6.844 35.502 6.453 48.797l67.883 67.884c22.446 22.412 22.47 58.764 0.014 81.195l-159.787 159.781c-22.406 22.445-58.758 22.476-81.187 0.008l-40.437-40.437c-72.281-72.258-90.75-181.548-45.961-271.946 80.445-162.396 236.617-385.536 523.844-526.38z" />
<glyph unicode="&#xe913;" glyph-name="20" d="M905.591 28.921l-393.564 294.526-393.654-294.526-21.906 29.293 393.565 294.526c12.943 9.639 30.976 9.656 43.902 0l393.581-294.526-21.924-29.293zM916.562 25.283h-809.143c-10.094 0-18.286 8.172-18.286 18.285v516.222c0 5.871 2.816 11.373 7.57 14.814l404.572 292.643c6.4 4.626 15.032 4.626 21.432 0l404.569-292.643c4.755-3.441 7.571-8.943 7.571-14.814v-516.222c0-10.114-8.172-18.285-18.285-18.285zM125.705 61.853h772.572v488.595l-386.287 279.405-386.285-279.405v-488.595zM398.667 323.502c-3.802 0-7.642 1.171-10.933 3.639l-283.339 212.043c-8.082 6.052-9.728 17.517-3.694 25.6 6.053 8.1 17.518 9.728 25.6 3.693l283.336-212.043c8.083-6.052 9.728-17.517 3.697-25.6-3.604-4.789-9.090-7.332-14.667-7.332zM905.134 574.218l21.917-29.31-341.859-255.645-21.917 29.307 341.859 255.648zM251.952 442.559c-10.094 0-18.286 8.192-18.286 18.289v128.857c0 10.097 8.192 18.289 18.286 18.289h520.027c10.093 0 18.285-8.175 18.285-18.268l0.038-47.616c0-10.114-8.175-18.285-18.268-18.306-10.093 0-18.302 8.175-18.302 18.268v29.348h-483.476v-110.572c-0.018-10.097-8.192-18.289-18.304-18.289zM689.688 469.149h-355.402c-10.094 0-18.286 8.192-18.286 18.285s8.192 18.285 18.286 18.285h355.402c10.11 0 18.285-8.192 18.285-18.285s-8.175-18.285-18.285-18.285zM598.231 385.727h-172.544c-10.097 0-18.289 8.175-18.289 18.289 0 10.11 8.192 18.285 18.289 18.285h172.544c10.11 0 18.285-8.175 18.285-18.285 0-10.114-8.175-18.289-18.285-18.289z" />
<glyph unicode="&#xe914;" glyph-name="fa-times" d="M73.44 9.44c5.792-5.798 13.797-9.385 22.64-9.385s16.848 3.587 22.64 9.385v0l393.28 393.28 393.44-393.28c5.794-5.794 13.799-9.378 22.64-9.378 17.683 0 32.018 14.335 32.018 32.018 0 8.841-3.584 16.846-9.378 22.64l-393.44 393.28 393.28 393.44c5.794 5.794 9.378 13.799 9.378 22.64 0 17.683-14.335 32.018-32.018 32.018-8.841 0-16.846-3.584-22.64-9.378v0l-393.28-393.44-393.44 393.28c-5.559 4.783-12.847 7.695-20.815 7.695-17.673 0-32-14.327-32-32 0-7.968 2.912-15.255 7.73-20.857l-0.035 0.042 393.28-393.44-393.28-393.44c-5.751-5.784-9.305-13.757-9.305-22.56s3.555-16.776 9.307-22.562l-0.002 0.002z" />
</font>
</defs>
</svg>
